<?xml version="1.0" standalone="no"?>
<!DOCTYPE svg PUBLIC "-//W3C//DTD SVG 1.1//EN" "http://www.w3.org/Graphics/SVG/1.1/DTD/svg11.dtd" >
<svg xmlns="http://www.w3.org/2000/svg">
<metadata>Generated by IcoMoon</metadata>
<defs>
<font id="icomoon" horiz-adv-x="1024">
<font-face units-per-em="1024" ascent="960" descent="-64" />
<missing-glyph horiz-adv-x="1024" />
<glyph unicode="&#x20;" horiz-adv-x="512" d="" />
<glyph unicode="&#xe900;" glyph-name="Oval" horiz-adv-x="630" d="M315.077-64c174.012 0 315.077 141.065 315.077 315.077s-141.065 683.808-315.077 683.808c-174.012 0-315.077-509.795-315.077-683.808s141.065-315.077 315.077-315.077z" />
<glyph unicode="&#xe901;" glyph-name="question" horiz-adv-x="670" d="M396.946 279.797l1.747 100.076c32.126 5.001 62.96 14.659 92.503 28.974s55.501 33.095 77.877 56.341c22.375 23.246 40.244 50.51 53.605 81.792s20.382 66.382 21.061 105.301c0.744 42.625-6.126 81.676-20.611 117.151s-35.693 65.971-63.625 91.485c-27.932 25.514-61.452 45.564-100.559 60.151s-82.454 22.295-130.040 23.125c-46.671 0.815-87.736-4.957-123.194-17.315s-65.952-28.742-91.482-49.152c-25.53-20.41-46.303-43.684-62.321-69.822s-28.388-53.034-37.109-80.689v0l166.229-73.811c8.835 34.142 25.114 62.129 48.837 83.96s53.43 32.436 89.12 31.813c32.944-0.575 59.55-10.308 79.816-29.201s30.093-45.944 29.478-81.156v0l-0.34-19.459c-0.906-51.892-19.622-88.41-56.149-109.555s-90.962-32.476-163.305-33.994v0l-3.712-212.663 192.175-3.354zM316.524-40.356c42.476-0.741 72.959 8.775 91.451 28.55s27.992 44.273 28.502 73.497v0l0.574 32.876c0.51 29.223-8.13 54.039-25.92 74.447s-47.923 30.982-90.399 31.724c-42.476 0.741-72.959-8.775-91.451-28.549s-27.992-44.274-28.502-73.497v0l-0.574-32.876c-0.51-29.224 8.13-54.039 25.92-74.447s47.923-30.983 90.399-31.724z" />
<glyph unicode="&#xe902;" glyph-name="filters" horiz-adv-x="960" d="M40.727 775.273h185.455c14.545-61.818 72.727-109.091 141.824-109.091s123.636 47.273 141.824 109.091h403.636c21.818 0 36.364 14.545 36.364 36.364s-14.545 36.364-36.364 36.364h-403.636c-14.545 61.818-72.727 109.091-141.824 109.091s-123.636-47.273-141.824-109.091h-185.455c-21.818 0-36.364-14.545-36.364-36.364s14.545-36.364 36.364-36.364zM368 884.364c40 0 72.727-32.727 72.727-72.727s-32.727-72.727-72.727-72.727c-40 0-72.727 32.727-72.727 72.727s32.727 72.727 72.727 72.727zM40.727 411.636h440c14.545-61.818 72.727-109.091 141.824-109.091s123.636 47.273 141.824 109.091h149.091c21.818 0 36.364 14.545 36.364 36.364s-14.545 36.364-36.364 36.364h-149.091c-14.545 61.818-72.727 109.091-141.824 109.091s-123.636-47.273-141.824-109.091h-440c-21.818 0-36.364-14.545-36.364-36.364s14.545-36.364 36.364-36.364zM622.545 520.727c40 0 72.727-32.727 72.727-72.727s-32.727-72.727-72.727-72.727c-40 0-72.727 32.727-72.727 72.727s32.727 72.727 72.727 72.727zM40.727 48h185.455c14.545-61.818 72.727-109.091 141.824-109.091s123.636 47.273 141.824 109.091h403.636c21.818 0 36.364 14.545 36.364 36.364s-14.545 36.364-36.364 36.364h-403.636c-14.545 61.818-72.727 109.091-141.824 109.091s-123.636-47.273-141.824-109.091h-185.455c-21.818 0-36.364-14.545-36.364-36.364s14.545-36.364 36.364-36.364zM368 157.091c40 0 72.727-32.727 72.727-72.727s-32.727-72.727-72.727-72.727c-40 0-72.727 32.727-72.727 72.727s32.727 72.727 72.727 72.727z" />
<glyph unicode="&#xe903;" glyph-name="download" horiz-adv-x="768" d="M663.155 633.362l-237.206-237.206v557.224h-110.379v-557.224l-237.206 237.206-77.275-77.224 369.673-369.673 369.673 369.673zM67.293 70.603h606.879v-110.327h-606.879z" />
<glyph unicode="&#xe904;" glyph-name="pause" horiz-adv-x="704" d="M0 960h256v-1024h-256zM448 960h256v-1024h-256z" />
<glyph unicode="&#xe905;" glyph-name="play" horiz-adv-x="910" d="M0 59.448c2.101-95.35 97.025-153.072 180.198-107.674l668.879 390.43c36.417 21.297 61.145 60.324 61.145 105.999 0 45.729-24.728 84.756-61.145 106.053l-668.879 389.89c-83.178 45.404-178.101-11.784-180.198-107.134v-777.565z" />
<glyph unicode="&#xe906;" glyph-name="arrow" d="M366.7 814.678l273.473-273.344h-640.172v-186.691h640.172l-273.473-273.343 145.3-145.3 512 512-512 512z" />
<glyph unicode="&#xe907;" glyph-name="calendar" d="M354.743 576h128v-128h-128zM548.571 576h128v-128h-128zM738.743 576h128v-128h-128zM164.571 192h128v-128h-128zM354.743 192h128v-128h-128zM548.571 192h128v-128h-128zM354.743 382.171h128v-128h-128zM548.571 382.171h128v-128h-128zM738.743 382.171h128v-128h-128zM164.571 382.171h128v-128h-128zM866.743 960v-65.829h-128v65.829h-446.171v-65.829h-128v65.829h-128v-1024h958.171v1024zM932.571-1.829h-833.829v705.829h833.829z" />
<glyph unicode="&#xe908;" glyph-name="share" horiz-adv-x="906" d="M738.089 960c-92.261 0-167.748-74.323-167.748-165.161 0-18.516 3.145-36.451 8.912-53.162l-287.268-183.742c-30.731 33.614-74.963 55.227-124.237 55.227-92.261 0-167.748-74.323-167.748-165.161s75.486-165.161 167.748-165.161c49.472 0 93.965 21.356 124.762 55.227l286.748-183.742c-5.897-16.838-8.912-34.451-8.912-53.162 0-90.839 75.486-165.161 167.748-165.161s167.753 74.323 167.753 165.161c0 90.839-75.491 165.161-167.753 165.161-49.276 0-93.506-21.613-124.237-55.227l-287.268 183.742c5.766 16.709 8.912 34.646 8.912 53.162 0 18.71-3.014 36.322-8.912 53.162l286.748 183.742c30.797-33.871 75.29-55.227 124.762-55.227 92.261 0 167.748 74.323 167.748 165.161s-75.486 165.161-167.748 165.161h-0.010zM738.089 893.935c55.959 0 100.649-44 100.649-99.097s-44.69-99.097-100.649-99.097c-55.959 0-100.649 44.001-100.649 99.097s44.69 99.097 100.649 99.097zM167.747 547.097c55.959 0 100.649-44 100.649-99.097s-44.69-99.097-100.649-99.097c-55.959 0-100.649 44-100.649 99.097s44.69 99.097 100.649 99.097zM738.089 200.258c55.959 0 100.649-44.001 100.649-99.097s-44.69-99.097-100.649-99.097c-55.959 0-100.649 44-100.649 99.097s44.69 99.097 100.649 99.097z" />
<glyph unicode="&#xe909;" glyph-name="close" d="M904.946 960l-392.946-392.946-392.946 392.946-119.054-119.054 392.946-392.946-392.946-392.946 119.054-119.054 392.946 392.946 392.946-392.946 119.054 119.054-392.946 392.946 392.946 392.946z" />
<glyph unicode="&#xe90a;" glyph-name="insta" d="M512 960c-139.063 0-156.482-0.602-211.109-3.080-54.485-2.478-91.694-11.152-124.265-23.791-33.668-13.099-62.203-30.624-90.667-59.052-28.5-28.464-45.989-57.034-59.052-90.703-12.674-32.571-21.348-69.78-23.826-124.3-2.478-54.592-3.080-72.010-3.080-211.073s0.602-156.482 3.080-211.073c2.478-54.521 11.152-91.729 23.826-124.3 13.064-33.668 30.553-62.203 59.052-90.703 28.464-28.429 56.999-45.953 90.667-59.052 32.571-12.639 69.78-21.313 124.265-23.755 54.627-2.514 72.045-3.115 211.109-3.115s156.482 0.602 211.109 3.115c54.485 2.443 91.694 11.117 124.265 23.755 33.668 13.099 62.203 30.624 90.667 59.052 28.5 28.5 45.989 57.034 59.052 90.703 12.674 32.571 21.348 69.78 23.826 124.3 2.478 54.592 3.080 72.010 3.080 211.073s-0.602 156.482-3.080 211.073c-2.478 54.521-11.152 91.729-23.826 124.3-13.064 33.668-30.553 62.239-59.052 90.703-28.464 28.429-56.999 45.953-90.667 59.052-32.571 12.639-69.78 21.313-124.265 23.791-54.627 2.478-72.045 3.080-211.109 3.080zM512 867.739c136.691 0 152.871-0.531 206.896-2.974 49.918-2.266 77.037-10.621 95.057-17.631 23.897-9.311 40.961-20.392 58.875-38.306s29.031-34.978 38.271-58.875c7.045-18.020 15.365-45.139 17.631-95.057 2.478-53.99 3.009-70.204 3.009-206.896s-0.531-152.906-3.009-206.896c-2.266-49.918-10.586-77.002-17.631-95.057-9.24-23.897-20.357-40.961-38.271-58.875s-34.978-28.995-58.875-38.306c-18.020-7.010-45.139-15.33-95.057-17.595-53.99-2.478-70.204-3.009-206.896-3.009s-152.906 0.531-206.896 3.009c-49.918 2.266-77.037 10.586-95.057 17.595-23.897 9.311-40.961 20.392-58.875 38.306s-29.031 34.978-38.271 58.875c-7.045 18.056-15.365 45.139-17.631 95.057-2.478 53.99-3.009 70.204-3.009 206.896s0.531 152.906 3.009 206.896c2.266 49.918 10.586 77.037 17.631 95.057 9.24 23.897 20.357 40.961 38.271 58.875s34.978 28.995 58.875 38.306c18.020 7.010 45.139 15.365 95.057 17.631 54.025 2.443 70.204 2.974 206.896 2.974zM510.761 278.596c-94.243 0-170.643 76.435-170.643 170.678s76.4 170.678 170.643 170.678c94.243 0 170.643-76.435 170.643-170.678s-76.4-170.678-170.643-170.678zM510.761 712.178c-145.224 0-262.939-117.715-262.939-262.904 0-145.224 117.715-262.904 262.939-262.904s262.939 117.68 262.939 262.904c0 145.188-117.715 262.904-262.939 262.904zM830.947 721.56c0-33.916-27.508-61.424-61.424-61.424s-61.46 27.508-61.46 61.424c0 33.916 27.544 61.424 61.46 61.424s61.424-27.508 61.424-61.424z" />
<glyph unicode="&#xe90b;" glyph-name="facebook" horiz-adv-x="576" d="M17.122 414.624h116.401v-462.112c0-9.12 7.665-16.512 17.122-16.512h197.364c9.457 0 17.122 7.392 17.122 16.512v459.936h133.788c8.694 0 16.027 6.272 17.022 14.624l20.307 170.112c0.564 4.704-0.962 9.376-4.214 12.896s-7.897 5.504-12.775 5.504h-154.129v106.656c0 32.16 17.951 48.448 53.356 48.448h100.773c9.424 0 17.122 7.392 17.122 16.512v156.16c0 9.12-7.698 16.512-17.122 16.512h-138.898c-0.962 0.064-3.152 0.128-6.338 0.128-24.123 0-107.873-4.576-174.038-63.264-73.298-65.056-63.111-142.912-60.656-156.416v-124.704h-122.208c-9.457 0-17.122-7.424-17.122-16.512v-167.968c0-9.12 7.665-16.512 17.122-16.512z" />
<glyph unicode="&#xe90c;" glyph-name="twitter" horiz-adv-x="1339" d="M1308.444 839.231c-49.057-21.028-100.832-34.119-155.368-42.016 54.537 31.501 98.114 81.414 117.228 141.798-51.819-28.883-109.030-49.87-171.765-63.003-46.339 52.488-117.184 83.989-193.509 83.989-147.214 0-267.16-115.491-267.16-257.288 0-20.986 2.718-39.398 8.198-57.766-226.301 7.854-422.529 112.914-556.109 267.802-21.832-39.355-35.466-81.413-35.466-131.283 0-89.268 46.383-168.020 119.99-215.314-43.621 2.66-84.523 13.132-122.708 31.543v-2.66c0-126.005 92.721-231.023 215.385-254.67-21.832-5.237-46.383-7.855-70.889-7.855-16.352 0-35.423 2.618-51.775 5.237 35.423-102.4 133.58-178.535 250.764-178.535-92.677-68.28-207.187-110.297-332.569-110.297-21.788 0-43.621 0-62.691 2.618 119.946-73.517 258.962-115.532 411.612-115.532 493.418 0 763.296 393.849 763.296 735.211v34.12c51.775 36.737 98.114 81.371 133.536 133.901z" />
<glyph unicode="&#xe90d;" glyph-name="link" d="M248.938 571.144c106.602 106.64 279.532 106.64 386.175 0 19.281-19.321 35.121-40.801 47.442-63.681v0l-44.921-45c-13.721-13.72-31.762-21.8-51.082-22.8-7.8 18.239-19.080 34.999-33.521 49.44-29.684 29.599-69.045 45.92-111.047 45.92-41.963 0-81.325-16.28-111.006-45.92v0l-168.925-168.92c-29.681-29.683-46.002-69.123-46.002-111.043 0-41.962 16.321-81.362 46.002-111.002 29.683-29.679 69.084-46 111.006-46 41.963 0 81.365 16.321 111.006 46v0l86.923 86.921c36.325-12.32 74.167-18.56 112.808-18.56v0c11.671-0.043 23.111 0.557 34.472 1.597v0l-152.121-152.116c-106.643-106.64-279.491-106.64-386.134 0-106.684 106.68-106.684 279.523 0 386.163v0zM557.867 880.020c106.602 106.64 279.532 106.64 386.175 0 106.608-106.601 106.608-279.484 0.006-386.083v0l-168.966-169.002c-106.643-106.64-279.573-106.64-386.216 0-19.241 19.32-35.042 40.839-47.362 63.64v0l45.001 45.040c13.761 13.72 31.762 21.72 51.002 22.801 7.76-18.24 19-35.001 33.441-49.361 29.684-29.679 69.045-46 111.047-46 41.924 0 81.366 16.321 111.047 46v0l168.925 168.92c29.641 29.642 45.962 69.081 45.962 111.002 0 42.001-16.321 81.362-45.962 111.002-29.684 29.68-69.125 46.001-111.047 46.001-41.964 0-81.406-16.321-111.047-46.001v0l-86.323-86.321c-35.526 11.8-73.008 17.921-111.569 17.921-12.24 0-24.401-0.56-36.481-1.88v0z" />
<glyph unicode="&#xe90f;" glyph-name="chevron" horiz-adv-x="683" d="M144.675 960l537.992-546.133h-276.142l-406.524 402.783 144.675 143.35zM144.675-64l-144.675 125.442 406.524 352.425h276.142l-537.992-477.867z" />
<glyph unicode="&#xe910;" glyph-name="tick" horiz-adv-x="1229" d="M1228.8 744.149l-781.971-808.149-446.829 456.783 208.847 220.855 237.982-245.948 573.125 592.31z" />
<glyph unicode="&#xe913;" glyph-name="cycle" d="M230.4 184.686c-62.387 69.050-100.56 161.015-100.56 261.895 0 192.205 138.573 352.045 321.263 385.062l2.383 0.357v128c-119.706-12.777-224.981-66.297-303.471-146.212l-0.072-0.074c-92.928-93.25-150.383-221.902-150.383-363.974 0-138.39 54.516-264.048 143.245-356.668l-0.176 0.185-109.714-109.714 343.771-18.286v365.714l-146.286-146.286zM647.314 930.743v-362.057l146.286 142.629c62.988-69.2 101.558-161.595 101.558-262.999 0-107.018-42.96-204.003-112.576-274.649l0.047 0.047c-55.794-55.286-128.667-93.421-210.006-105.793l-2.109-0.264v-131.657c256.308 32.548 452.484 249.251 452.484 511.773 0 137.656-53.939 262.713-141.834 355.19l0.207-0.22 109.714 109.714-343.771 18.286z" />
<glyph unicode="&#xe91c;" glyph-name="email" d="M516.16 360.32l-462.080 405.44h923.84zM332.16 448l-323.84-284.16v568.64zM374.080 411.2l142.080-123.2 142.080 124.8 320-280.96h-924.48zM699.84 448l324.16 284.48v-568.64z" />
<glyph unicode="&#xe922;" glyph-name="heart" d="M512 9.143c-0.314-0.011-0.682-0.017-1.052-0.017-9.741 0-18.494 4.232-24.52 10.957l-0.027 0.031-354.743 343.771-18.286 14.629-29.257 36.571-40.229 54.857c-10.876 19.696-20.796 42.694-28.484 66.69l-0.774 2.796c-9.264 23.375-14.635 50.457-14.635 78.794 0 0.585 0.002 1.169 0.007 1.753l-0.001-0.089c-0.219 4.043-0.343 8.775-0.343 13.537 0 71.351 27.991 136.165 73.59 184.059l-0.104-0.11c47.849 43.525 111.722 70.176 181.821 70.176 6.799 0 13.54-0.251 20.213-0.743l-0.891 0.053c24.852-0.086 48.739-4.093 71.114-11.434l-1.629 0.463 69.486-32.914 54.857-40.229 43.886-40.229 43.886 40.229 54.857 40.229 69.486 32.914c20.747 6.879 44.633 10.886 69.444 10.971h0.042c5.782 0.44 12.523 0.691 19.322 0.691 70.098 0 133.971-26.651 182.040-70.373l-0.219 0.197c45.496-47.784 73.486-112.598 73.486-183.949 0-4.761-0.125-9.494-0.371-14.194l0.027 0.657c0-84.114-43.886-171.886-131.657-256l-354.743-343.771c-6.054-6.757-14.807-10.988-24.548-10.988-0.37 0-0.739 0.006-1.106 0.018l0.053-0.001z" />
<glyph unicode="&#xe924;" glyph-name="image" d="M896 777.143h-768v-640h768zM1024 905.143v0-896h-1024v896zM833.829 202.971h-640v128l190.171 318.171 263.314-318.171 186.514 128v-256zM640 619.886c9.176 45.803 49.072 79.828 96.914 79.828s87.738-34.025 96.809-79.197l0.106-0.631c1.163-5.687 1.829-12.223 1.829-18.915 0-54.534-44.209-98.743-98.743-98.743s-98.743 44.209-98.743 98.743c0 6.692 0.666 13.228 1.934 19.546l-0.106-0.631z" />
<glyph unicode="&#xe92d;" glyph-name="mouse" d="M199.68 448c0 64 0 128 0 192 0.863 173.779 141.937 314.32 315.836 314.32 124.532 0 232.231-72.073 283.659-176.782l0.825-1.858c20.11-39.546 31.923-86.224 32-135.655v-0.025c0-128 2.24-256 0-384 0.023-1.382 0.035-3.012 0.035-4.645 0-124.16-74.276-230.971-180.818-278.424l-1.937-0.771c-38.752-19.725-84.51-31.281-132.967-31.281-43.973 0-85.723 9.517-123.303 26.602l1.87-0.761c-114.195 48.171-193.119 158.731-194.239 287.858l-0.001 0.142c-1.28 65.28-0.96 129.28-0.96 193.28zM263.68 448c0-64 0-128 0-192-0.004-0.532-0.006-1.161-0.006-1.79 0-12.006 0.816-23.822 2.396-35.395l-0.15 1.345c22.027-119.202 125.169-208.296 249.119-208.296 136.635 0 247.984 108.261 252.947 243.683l0.013 0.453q0 192 0 384c0.102 2.681 0.16 5.83 0.16 8.993 0 139.618-113.182 252.8-252.8 252.8s-252.8-113.182-252.8-252.8c0-3.162 0.058-6.311 0.173-9.446l-0.013 0.453q0-96 0-190.080zM577.6 565.76c-5.088-30.691-31.436-53.806-63.183-53.806-0.85 0-1.696 0.017-2.538 0.049l0.121-0.004c-32.691 2.17-58.554 28.588-59.836 61.318l-0.004 0.122c0 22.080 0 44.16 0 66.56 5.042 30.742 31.415 53.912 63.2 53.912s58.158-23.17 63.15-53.542l0.050-0.371c0-10.88 0-21.44 0-32z" />
<glyph unicode="&#xe93d;" glyph-name="quote-set1-end" d="M0 832v-384h256c0-141.385-114.615-256-256-256v0-128c212.077 0 384 171.923 384 384v0 384zM640 832v-384h256c0-141.385-114.615-256-256-256v0-128c212.077 0 384 171.923 384 384v0 384z" />
<glyph unicode="&#xe93e;" glyph-name="quote-set1-start" d="M1024 64v384h-256c0 141.385 114.615 256 256 256v0 128c-212.077 0-384-171.923-384-384v0-384zM384 64v384h-256c0 141.385 114.615 256 256 256v0 128c-212.077 0-384-171.923-384-384v0-384z" />
<glyph unicode="&#xe941;" glyph-name="search" d="M1005.76 58.24l-216 215.68c50.734 69.947 81.156 157.501 81.156 252.16 0 238.764-193.556 432.32-432.32 432.32-0.069 0-0.138 0-0.207 0h0.011c-238.979-0.182-432.64-193.955-432.64-432.96v0c-0.001-0.249-0.001-0.543-0.001-0.837 0-238.764 193.556-432.32 432.32-432.32 94.659 0 182.213 30.423 253.417 82.024l-1.257-0.867 215.36-215.040c12.43-11.085 28.913-17.858 46.978-17.858 39.058 0 70.72 31.662 70.72 70.72 0 18.065-6.774 34.549-17.92 47.048l0.061-0.070zM232.32 320c-52.721 52.749-85.328 125.607-85.328 206.080 0 161.002 130.518 291.52 291.52 291.52s291.52-130.518 291.52-291.52c0-161.002-130.518-291.52-291.52-291.52-0.039 0-0.078 0-0.118 0h0.006c-0.203-0.001-0.444-0.001-0.685-0.001-80.278 0-152.927 32.664-205.381 85.427l-0.014 0.014z" />
<glyph unicode="&#xe94f;" glyph-name="warning" d="M1009.371 122.514l-384 768c-21.861 41.083-64.405 68.578-113.371 68.578s-91.51-27.495-113.036-67.888l-0.336-0.69-384-768c-9.376-17.062-14.892-37.39-14.892-59.006 0-24.187 6.906-46.762 18.854-65.859l-0.304 0.522c22.762-37.484 63.355-62.149 109.711-62.171h768.003c46.359 0.023 86.952 24.687 109.394 61.604l0.32 0.567c11.643 18.575 18.549 41.15 18.549 65.337 0 21.616-5.516 41.944-15.217 59.653l0.325-0.647zM574.171 96.914c0.146-1.098 0.23-2.369 0.23-3.658 0-16.158-13.099-29.257-29.257-29.257-0.081 0-0.161 0-0.242 0.001h-65.817c-18.178 0-32.914 14.736-32.914 32.914v0 62.171c0 18.178 14.736 32.914 32.914 32.914h65.829c0.068 0.001 0.149 0.001 0.23 0.001 16.158 0 29.257-13.099 29.257-29.257 0-1.29-0.083-2.56-0.245-3.805l0.016 0.147zM574.171 352.914c0.146-1.098 0.23-2.369 0.23-3.658 0-16.158-13.099-29.257-29.257-29.257-0.081 0-0.161 0-0.242 0.001h-65.817c-18.178 0-32.914 14.736-32.914 32.914v0 318.171c0 18.178 14.736 32.914 32.914 32.914v0h65.829c0.068 0.001 0.149 0.001 0.23 0.001 16.158 0 29.257-13.099 29.257-29.257 0-1.29-0.083-2.56-0.245-3.805l0.016 0.147z" />
</font>
</defs>
</svg>
